bt天堂

 找回密碼
 立即注冊
打印 上一主題 下一主題

圣朱迪 Saint.Judy.2018.1080p.BluRay.x264-GUACAMOLE 7.65GB

[復制鏈接]
?
跳轉到指定樓層
樓主
bt天堂 發表于 2019-12-7 16:27:37 | 只看該作者 |只看大圖 回帖獎勵 |倒序瀏覽 |閱讀模式
帖子完整標題:圣朱迪 Saint.Judy.2018.1080p.BluRay.x264-GUACAMOLE 7.65GB




◎譯  名 圣朱迪
◎片  名 Saint Judy
◎年  代 2018
◎產  地 美國
◎類  別 劇情
◎語  言 英語
◎上映日期 2018-09-22(洛杉磯電影節) / 2019-03-01(美國)
◎IMDb評分  4.5/10 from 144 users
◎導  演 西恩·漢尼旭 Sean Hanish
◎編  劇 Dmitry Portnoy
◎主  演 米歇爾·莫納漢 Michelle Monaghan
      埃美·加西亞 Aimee Garcia
      阿爾弗雷德·莫里納 Alfred Molina
      阿爾法·伍達德 Alfre Woodard
      凱文·查普曼 Kevin Chapman
      瓦利德·祖伊特 Waleed Zuaiter
      麗姆·盧巴尼 Leem Lubani
      法希姆·法茲利 Fahim Fazli


◎標  簽 美國 | 2018 | PeterKrause | BenSchnetzer | 2010s

◎簡  介  

  影片根據真實事件改編,洛杉磯移民律師朱迪·伍德(莫納漢飾)幫助一名阿富汗婦女打贏移民官司,此舉改變了美國女性移民政治庇護法。伍達德飾女法官。影片已正式開拍。
Video
ID                                       : 1
Format                                   : AVC
Format settings                          : CABAC / 4 Ref Frames
Format settings, CABAC                   : Yes
Format settings, Reference frames        : 4 frames
Codec ID                                 : V_MPEG4/ISO/AVC
Duration                                 : 1 h 45 min
Bit rate                                 : 8 829 kb/s
Width                                    : 1 920 pixels
Height                                   : 1 040 pixels
Display aspect ratio                     : 1.85:1
Frame rate mode                          : Constant
Frame rate                               : 23.976 (24000/1001) FPS
Color space                              : YUV
Chroma subsampling                       : 4:2:0
Bit depth                                : 8 bits
Scan type                                : Progressive
Bits/(Pixel*Frame)                       : 0.184
Stream size                              : 6.53 GiB (85%)
Writing library                          : x264 core 158 r2988 7817004
Encoding settings                        : cabac=1 / ref=4 / deblock=1:0:0 / analyse=0x3:0x113 / me=umh / subme=8 / psy=1 / psy_rd=1.00:0.00 / mixed_ref=1 / me_range=16 / chroma_me=1 / trellis=2 / 8x8dct=1 / cqm=0 / deadzone=21,11 / fast_pskip=0 / chroma_qp_offset=-2 / threads=24 / lookahead_threads=4 / sliced_threads=0 / nr=0 / decimate=1 / interlaced=0 / bluray_compat=0 / constrained_intra=0 / bframes=3 / b_pyramid=2 / b_adapt=1 / b_bias=0 / direct=1 / weightb=1 / open_gop=0 / weightp=2 / keyint=250 / keyint_min=23 / scenecut=40 / intra_refresh=0 / rc_lookahead=50 / rc=2pass / mbtree=1 / bitrate=8829 / ratetol=1.0 / qcomp=0.60 / qpmin=0 / qpmax=69 / qpstep=4 / cplxblur=20.0 / qblur=0.5 / ip_ratio=1.40 / aq=1:1.00
Default                                  : Yes
Forced                                   : No

Audio
ID                                       : 2
Format                                   : DTS
Format/Info                              : Digital Theater Systems
Codec ID                                 : A_DTS
Duration                                 : 1 h 45 min
Bit rate mode                            : Constant
Bit rate                                 : 1 509 kb/s
Channel(s)                               : 6 channels
Channel layout                           : C L R Ls Rs LFE
Sampling rate                            : 48.0 kHz
Frame rate                               : 93.750 FPS (512 SPF)
Bit depth                                : 24 bits
Compression mode                         : Lossy
Stream size                              : 1.12 GiB (15%)
Language                                 : English
Default                                  : Yes
Forced                                   : No

Menu
00:00:00.000                             : en:00:00:00.000
00:14:18.357                             : en:00:14:18.357
00:25:59.683                             : en:00:25:59.683
00:45:04.160                             : en:00:45:04.160
00:59:27.731                             : en:00:59:27.731
01:11:54.393                             : en:01:11:54.393
01:23:19.578                             : en:01:23:19.578
01:35:17.211                             : en:01:35:17.211



                                                                                                                                                                                                        
                                                                                                                                                                                                                                                                                                                                                                                                                                                                                                                                                                                                                                                                                                                                                                                                                                                      
3d2062687b4fedad59012e8aed78de8b.torrent (38.87 KB, 下載次數: 0)

回復

使用道具 舉報

您需要登錄后才可以回帖 登錄 | 立即注冊

本版積分規則

bt天堂  

本網站所有資源來自網絡,如無意中侵犯了您的權益,請發郵件至 [email protected],立即清除相關鏈接

GMT+8, 2020-1-26 18:06 , Processed in 0.137545 second(s), 27 queries .

Powered by Discuz! X3.2

© 2001-2013 Comsenz Inc.

快速回復 返回頂部 返回列表
极速飞艇诀窍