bt天堂

 找回密碼
 立即注冊
打印 上一主題 下一主題

第一滴血5:最后的血 Rambo.Last.Blood.2019.1080p.BluRay.x264-AAA 5.45GB

[復制鏈接]
?
跳轉到指定樓層
樓主
bt天堂 發表于 2019-12-7 16:27:37 | 只看該作者 |只看大圖 回帖獎勵 |倒序瀏覽 |閱讀模式
帖子完整標題:第一滴血5:最后的血 Rambo.Last.Blood.2019.1080p.BluRay.x264-AAA 5.45GB




◎譯  名 第一滴血5:最后的血 / Rambo 5 / Rambo 5: Last Blood / Rambo V / Rambo V: Last Blood / 蘭博5:最后一滴血 / 第一滴血5 / 第一滴血:最后一戰 / 第一滴血:終極血戰(港) / 藍波:最后一滴血(臺)
◎片  名 Rambo: Last Blood
◎年  代 2019
◎產  地 美國
◎類  別 動作 / 驚悚 / 冒險
◎語  言 英語
◎上映日期 2019-09-20(美國)
◎片  長 89分鐘
◎導  演 阿德里安·格魯伯格 Adrian Grunberg
◎編  劇 馬修·西魯尼克 Matthew Cirulnick / 大衛·莫瑞爾 David Morrell / 西爾維斯特·史泰龍 Sylvester Stallone
◎主  演 西爾維斯特·史泰龍 Sylvester Stallone
       帕斯·貝加 Paz Vega
       路易·曼迪勒 Louis Mandylor
       奧斯卡·賈恩那達 óscar Jaenada
       維特·蒙雷爾 Yvette Monreal
       華金·科西奧 Joaquín Cosio
       杰西卡·馬德森 Jessica Madsen
       艾德里安娜·巴拉扎 Adriana Barraza
       塞爾吉奧·佩里斯-門切塔 Sergio Peris-Mencheta
       阿塔納斯·斯雷布雷夫 Atanas Srebrev
       尼克·威特曼 Nick Wittman


◎標  簽 動作 | 硬漢 | 美國 | 經典 | 暴力 | 戰爭 | 血腥 | 2019

◎簡  介  

  西爾維斯特·史泰龍回歸[第一滴血5],并有望執導。除主演外,據悉史泰龍將操刀劇本,故事圍繞蘭博為營救朋友之女與墨西哥毒梟展開殊死搏斗展開。制片艾威·勒納([敢死隊]系列)。該系列首部于1982年上映,2008年史泰龍曾自導自演[第一滴血4]。[第一滴血5]將在本屆戛納電影節預售,9月開拍。
Video
ID                                       : 1
Format                                   : AVC
Format/Info                              : Advanced Video Codec
Format settings                          : CABAC / 5 Ref Frames
Format settings, CABAC                   : Yes
Format settings, Reference frames        : 5 frames
Codec ID                                 : V_MPEG4/ISO/AVC
Duration                                 : 1 h 29 min
Bit rate                                 : 8 096 kb/s
Width                                    : 1 920 pixels
Height                                   : 808 pixels
Display aspect ratio                     : 2.40:1
Frame rate mode                          : Constant
Frame rate                               : 23.976 (24000/1001) FPS
Color space                              : YUV
Chroma subsampling                       : 4:2:0
Bit depth                                : 8 bits
Scan type                                : Progressive
Bits/(Pixel*Frame)                       : 0.218
Stream size                              : 5.05 GiB (93%)
Title                                    : Rambo.Last.Blood.2019.1080p.BluRay.x264-AAA
Writing library                          : x264 core 157 r2969 d4099dd
Encoding settings                        : cabac=1 / ref=5 / deblock=1:0:0 / analyse=0x3:0x113 / me=umh / subme=8 / psy=1 / psy_rd=1.00:0.00 / mixed_ref=1 / me_range=16 / chroma_me=1 / trellis=1 / 8x8dct=1 / cqm=0 / deadzone=21,11 / fast_pskip=1 / chroma_qp_offset=-2 / threads=16 / lookahead_threads=2 / sliced_threads=0 / nr=0 / decimate=1 / interlaced=0 / bluray_compat=0 / constrained_intra=0 / bframes=3 / b_pyramid=2 / b_adapt=2 / b_bias=0 / direct=3 / weightb=1 / open_gop=0 / weightp=2 / keyint=240 / keyint_min=23 / scenecut=40 / intra_refresh=0 / rc_lookahead=50 / rc=2pass / mbtree=1 / bitrate=8096 / ratetol=1.0 / qcomp=0.60 / qpmin=0 / qpmax=69 / qpstep=4 / cplxblur=20.0 / qblur=0.5 / ip_ratio=1.40 / aq=1:1.00
Default                                  : Yes
Forced                                   : No

Audio
ID                                       : 2
Format                                   : AC-3
Format/Info                              : Audio Coding 3
Commercial name                          : Dolby Digital
Codec ID                                 : A_AC3
Duration                                 : 1 h 29 min
Bit rate mode                            : Constant
Bit rate                                 : 640 kb/s
Channel(s)                               : 6 channels
Channel layout                           : L R C LFE Ls Rs
Sampling rate                            : 48.0 kHz
Frame rate                               : 31.250 FPS (1536 SPF)
Bit depth                                : 16 bits
Compression mode                         : Lossy
Stream size                              : 410 MiB (7%)
Title                                    : English Dolby Digital (AC3)
Language                                 : English
Service kind                             : Complete Main
Default                                  : Yes
Forced                                   : No

Text
ID                                       : 3
Format                                   : UTF-8
Codec ID                                 : S_TEXT/UTF8
Codec ID/Info                            : UTF-8 Plain Text
Duration                                 : 1 h 18 min
Bit rate                                 : 37 b/s
Count of elements                        : 834
Stream size                              : 21.2 KiB (0%)
Title                                    : English SDH
Language                                 : English
Default                                  : No
Forced                                   : No

Menu
00:00:00.000                             : :Chapter 01
00:04:50.081                             : :Chapter 02
00:10:59.158                             : :Chapter 03
00:14:35.791                             : :Chapter 04
00:22:39.024                             : :Chapter 05
00:25:11.718                             : :Chapter 06
00:31:24.382                             : :Chapter 07
00:36:12.253                             : :Chapter 08
00:41:08.299                             : :Chapter 09
00:46:37.878                             : :Chapter 10
00:49:29.967                             : :Chapter 11
00:55:04.926                             : :Chapter 12
01:00:08.229                             : :Chapter 13
01:05:57.495                             : :Chapter 14
01:12:06.280                             : :Chapter 15
01:17:47.287                             : :Chapter 16



                                                                                                                                                                                                        
                                                                                                                                                                                                                                                                                                                                                                                                                                                                                                                                                                                                                                                                                                                                                                                                                                                      
a1fe30f83a9768408044506681116312.torrent (27.94 KB, 下載次數: 0)

回復

使用道具 舉報

您需要登錄后才可以回帖 登錄 | 立即注冊

本版積分規則

bt天堂  

本網站所有資源來自網絡,如無意中侵犯了您的權益,請發郵件至 [email protected],立即清除相關鏈接

GMT+8, 2020-1-25 11:29 , Processed in 0.211307 second(s), 27 queries .

Powered by Discuz! X3.2

© 2001-2013 Comsenz Inc.

快速回復 返回頂部 返回列表
极速飞艇诀窍